ตายยาก เพราะเธอเจ็บไม่ได้ เจ็ท ลี หนังใหม่ 2020 HD เต็มเรื่อง หนังดี หนังแอคชั่น ต่อสู้ พากย์ไทย | คนหมาเดือด | ร้านขายหนังใหม่ที่ดีที่สุด

by Chakrii Malee
0 comment

ชมวิดีโอโดยละเอียดด้านล่าง

Table of Contents

ดูหนังออนไลน์ ปิดหน่วยล่า คนหมาเดือด 2561 เจ็ทลี


ดูหนังออนไลน์ ปิดหน่วยล่า คนหมาเดือด 2561 เจ็ทลี

เขาถูกเลี้ยงเหมือนสุนัข (สปอยหนัง) Unleashed (2005) คนหมาเดือด


สปอยหนัง Unleashed คนหมาเดือด
เลี้ยงคนเหมือนเลี้ยงหมา! (สปอยหนัง) Unleashed (2005) คนหมาเดือด
เรื่องนี้เป็นหนังเก่าหลายคนเคยดูจนลืมไปเเล้ว แแต่สำหรับใครไม่เคยดูลองดูได้เลยครับผม ขอบคุณที่รับชม

ผิดพลาดประการใดขออภัยมา ณ ที่นี้ด้วยครับ
Youtube : https://www.youtube.com/c/STARBEARSCHANNEL

เขาถูกเลี้ยงเหมือนสุนัข (สปอยหนัง) Unleashed (2005) คนหมาเดือด

เจ็ท ลี : คนหมาเดือด | ฉากต่อสู้ 1 vs 4 50


: รับชมเพื่อความบันเทิงนะครับ ขอบคุณครับ
: จากเรื่อง คนหมาเดือด

เจ็ท ลี : คนหมาเดือด | ฉากต่อสู้ 1 vs 4 50

เมื่อเขาถูกใส่ปลอกคอเลี้ยงเป็นหมามาตั้งแต่เด็ก ชีวิตจึงมีแต่การต่อสู้ unleashed คนหมาเดือด Movie4u


UNLEASHED สปอยหนัง หนึ่งในมาแรง Movie4u

ช่องทางสนับสนุน พร้อมเพย์ ➽ 0839237343
…………………………………………………………….

เรื่องย่อ
บาร์ท (บ็อบ ฮอสกิ้นส์) เลี้ยงดูสั่งสอน แดนนี่ (เจ็ท ลี) เยี่ยงสุนัขในอาณัติ แดนนี่ได้รับการฝึกฝนศิลปะการต่อสู้ และขัดเกลาฝีมือจนได้เป็นอาวุธเด็ดของเจ้านาย เมื่อตกอยู่ภายใต้อำนาจเช่นนี้ แดนนี่รับรู้เพียงว่าต้องเชื่อฟัง และทำตามคำสั่งของบาร์ท และไม่เคยได้รับอิสรภาพและมีชีวิตอยู่อย่างเสรี

…………………………………………………………….
Facebook Fanpage ➽ https://www.facebook.com/Movie4U106240687752689
……………………………………………………………………………………………………………………………………
Subscribe ➽ กดเลย https://www.youtube.com/channel/UCe_nH0bhhJrHtF2euYalUXA?sub_confirmation=1
………………………………………………………………………………………………………………………………..

Hashtag ➽ Movie4u movie4u เล่าหนังเก่า มหากาพย์ สปอยโคตรมันส์ สปอยโคตรมัน สปอยหนังนักสืบ สปอยหนัง หนัง คลิปเด็ด spoiler หนัง2021 พระเอกเก่ง ตัวเอกเก่ง ภาพยนต์ หนังฮาๆ หนังตลกใหม่ เพลงหนัง หนังผี หนังตลก หนังแเอคชั่น หนังดราม่า หนังสั้น หนังไทยตลก พากษ์นรก หนังเก่า สปอยหนังเก่า ตลก ขำ สปอย เรื่องย่อ เล่าหนัง หนังใหม่ สปอย สปอยหนัง หนังฝรั่ง หนังไทย เล่าเรื่อง หนัง2020 หนังปีหน้า สรุปเรื่องราวหนัง สรุปหนัง หนังเดือนนี้ หนังมัน2021 พระเอกเก่ง

เมื่อเขาถูกใส่ปลอกคอเลี้ยงเป็นหมามาตั้งแต่เด็ก ชีวิตจึงมีแต่การต่อสู้ unleashed  คนหมาเดือด Movie4u

เจ็ท ลี : คนหมาเดือด | ฉากต่อสู้ 49


: รับชมเพื่อความบันเทิงนะครับ ขอบคุณครับ
: จากเรื่อง คนหมาเดือด

เจ็ท ลี : คนหมาเดือด | ฉากต่อสู้ 49

ตายยาก เพราะเธอเจ็บไม่ได้ เจ็ท ลี หนังใหม่ 2020 HD เต็มเรื่อง หนังดี หนังแอคชั่น ต่อสู้ พากย์ไทย


ตายยาก เพราะเธอเจ็บไม่ได้ เจ็ท ลี หนังใหม่ 2020 HD เต็มเรื่อง หนังดี หนังแอคชั่น ต่อสู้ พากย์ไทย
ตายยาก ,เพราะเธอเจ็บไม่ได้ ,เจ็ท ลี, หนังใหม่ 2020 HD เต็มเรื่อง ,หนังดี หนังแอคชั่น, ต่อสู้ พากย์ไทย

ตายยาก เพราะเธอเจ็บไม่ได้ เจ็ท ลี หนังใหม่ 2020 HD เต็มเรื่อง หนังดี หนังแอคชั่น ต่อสู้ พากย์ไทย

หนังใหม่ 2021 HD📽ดูหนังชนโรง📽เต็มเรื่อง📽พากย์ไทย📽ภาพยนเเอ็ัคชั่น


หนังใหม่ 2021 HD📽ดูหนังชนโรง📽เต็มเรื่อง📽พากย์ไทย📽ภาพยนเเอ็ัคชั่น

หนังจีนกำลังภายใน | ปึงซีเง็ก ปิดตาสู้ | สาวลงหนัง


READ  การ์ตูนรถแม็คโครรถดั้มรถบรรทุกรถแทรกเตอร์รถเครนรถบรรทุกรถโม่ปูนรถดั้มดินรถขุดรถชนรถแม็คโครไซเรนเฮด | รถบรรทุกการ์ตูน

ต้นฉบับจากบิททอเร้น
Format : Matroska
Format version : Version 4 / Version 2
File size : 3.61 GiB
Duration : 1 h 32 min
Overall bit rate : 5 591 kb/s
Encoded date : UTC 20200914 23:52:33
Writing application : mkvmerge v25.0.0 (‘Prog Noir’) 32bit
Writing library : libebml v1.3.6 + libmatroska v1.4.9 / Lavf58.20.100

Video
ID : 1
Format : AVC
Format/Info : Advanced Video Codec
Format profile : High@L4
Format settings, CABAC : Yes
Format settings, ReFrames : 2 frames
Codec ID : V_MPEG4/ISO/AVC
Duration : 1 h 32 min
Bit rate : 5 369 kb/s
Width : 1 920 pixels
Height : 1 080 pixels
Display aspect ratio : 16:9
Frame rate mode : Constant
Frame rate : 30.000 FPS
Color space : YUV
Chroma subsampling : 4:2:0
Bit depth : 8 bits
Scan type : Progressive
Bits/(PixelFrame) : 0.086
Stream size : 3.47 GiB (96%)
Writing library : Lavc58.35.100 h264_qsv
Language : Chinese
Default : Yes
Forced : Yes

Audio
ID : 2
Format : AC3
Format/Info : Audio Coding 3
Mode extension : CM (complete main)
Format settings, Endianness : Big
Codec ID : A_AC3
Duration : 1 h 30 min
Bit rate mode : Constant
Bit rate : 224 kb/s
Channel(s) : 2 channels
Channel positions : Front: L R
Sampling rate : 48.0 kHz
Frame rate : 31.250 FPS (1536 spf)
Compression mode : Lossy
Stream size : 145 MiB (4%)
Title : อินทรี ต้นฉบับ
Language : Thai
Default : Yes
Forced : Yes

หนังจีนกำลังภายใน | ปึงซีเง็ก ปิดตาสู้ | สาวลงหนัง

คนเดือดหมัดดิบ


กดติดตามได้ที่นี่มีหนังมาอัปเดททุกวัน

คนเดือดหมัดดิบ

เจ็ท ลี ฟัดทะลุโลก


เจ็ท ลี ฟัดทะลุโลก

รูปภาพที่เกี่ยวข้องกับเนื้อหา ตายยาก เพราะเธอเจ็บไม่ได้ เจ็ท ลี หนังใหม่ 2020 HD เต็มเรื่อง หนังดี หนังแอคชั่น ต่อสู้ พากย์ไทย.

ตายยาก เพราะเธอเจ็บไม่ได้ เจ็ท ลี หนังใหม่ 2020 HD เต็มเรื่อง หนังดี หนังแอคชั่น ต่อสู้ พากย์ไทย

ตายยาก เพราะเธอเจ็บไม่ได้ เจ็ท ลี หนังใหม่ 2020 HD เต็มเรื่อง หนังดี หนังแอคชั่น ต่อสู้ พากย์ไทย


บทช่วยสอนที่เกี่ยวข้องกับหัวข้อ คนหมาเดือด

สามารถดูข้อมูลที่เป็นประโยชน์เพิ่มเติมได้ที่นี่: https://aseanseafoodexpo.com/film-and-animation/

>>Future-user เราหวังว่าข้อมูลนี้จะมีคุณค่าอย่างยิ่งสำหรับคุณ ขอบคุณมากที่รับชม.

#ตายยาก #เพราะเธอเจบไมได #เจท #ล #หนงใหม #เตมเรอง #หนงด #หนงแอคชน #ตอส #พากยไทย

[vid_tags]

ตายยาก เพราะเธอเจ็บไม่ได้ เจ็ท ลี หนังใหม่ 2020 HD เต็มเรื่อง หนังดี หนังแอคชั่น ต่อสู้ พากย์ไทย

คนหมาเดือด.

You may also like

Leave a Comment